Skip to main content

Aqueous Live at Tyrone Farm on 2013-01-25

by Aqueous



01 Tuning
02 Skyway
03 Warren in the Window >
04 Double Bass >
05 Warren in the Window
06 All In
07 Pictures >
08 They're Calling For Ya >
09 Triangle

ENCORE I
10 Complex

ENCORE II
11 Jam >
12 Gordon's Mule


Collection Aqueous
Band/Artist Aqueous
Venue Tyrone Farm
Location Pomfret, CT

Source Schoeps MK22/MK4>KC5>CMC6>Sonosax SX-R4(24bit/96khz) & SB>SX-R4
Lineage WAV>USB>Macbook Pro>Audacity(mixing)>Wave Editor(tracking,fades,resample(izotope)/dither(mbit+)to 16 bit/44.1k)>XAct(FLAC 8,ffp,fix sbe)
Taped by Andy Murray
Transferred by Andy Murray

Notes

Aqueous
2013-01-25
Tyrone Farm (Cottage)
Pomfret, CT

Mics were stage lip
MK22s were 21cm,110 degrees
MK4s were NOS

Source: Schoeps MK22/MK4>KC5>CMC6>Sonosax SX-R4(24bit/96khz) & SB>SX-R4

Lineage: WAV>USB>Macbook Pro>Audacity(mixing)>Wave Editor(tracking,fades,resample(izotope)/dither(mbit+)to 16 bit/44.1k)>XAct(FLAC 8,ffp,fix sbe)

Taped by: Andy Murray
Transferred by: Andy Murray

Dopapod played too as well as a Superjam mix of the bands after each bands set.

1 Set

length expanded size cdr WAVE problems fmt ratio filename
0:19.34 3431612 B --- -- ----- wav 1.0000 aqueous2013-01-25_mk22mk4sbmix_1644_d1t01.wav
18:12.32 192704108 B --- -- ----- wav 1.0000 aqueous2013-01-25_mk22mk4sbmix_1644_d1t02.wav
6:53.51 72973196 B --- -- ----- wav 1.0000 aqueous2013-01-25_mk22mk4sbmix_1644_d1t03.wav
4:40.31 49464956 B --- -- ----- wav 1.0000 aqueous2013-01-25_mk22mk4sbmix_1644_d1t04.wav
4:34.05 48345404 B --- -- ----- wav 1.0000 aqueous2013-01-25_mk22mk4sbmix_1644_d1t05.wav
13:14.32 140136908 B --- -- ----- wav 1.0000 aqueous2013-01-25_mk22mk4sbmix_1644_d1t06.wav
6:54.18 73071980 B --- -- ----- wav 1.0000 aqueous2013-01-25_mk22mk4sbmix_1644_d1t07.wav
14:40.16 155269676 B --- -- ----- wav 1.0000 aqueous2013-01-25_mk22mk4sbmix_1644_d1t08.wav
13:32.26 143297996 B --- -- ----- wav 1.0000 aqueous2013-01-25_mk22mk4sbmix_1644_d1t09.wav
9:08.42 96766028 B --- -- ----- wav 1.0000 aqueous2013-01-25_mk22mk4sbmix_1644_d1t10.wav
6:37.18 70073180 B --- -- ----- wav 1.0000 aqueous2013-01-25_mk22mk4sbmix_1644_d1t11.wav
10:53.56 115320956 B --- -- ----- wav 1.0000 aqueous2013-01-25_mk22mk4sbmix_1644_d1t12.wav
109:40.61 1160856000 B 1.0000 (12 files)

Reviews

There are no reviews yet. Be the first one to write a review.
PEOPLE ALSO FOUND
Aqueous
66
0
0
Source: Schoeps mk41/sb>Sonosax SX-R4
Aqueous
by Aqueous
334
0
0
Source: Schoeps MK22/MK41>Sonosax SX-R4 + Soundboard>SX-R4
Aqueous
by Aqueous
426
0
0
Source: Schoeps MK22/MK4>KC5>CMC6>Sonosax SX-R4(24bit/96khz) & SB>SX-R4
Aqueous
by Aqueous
358
0
0
Source: Schoeps MK22/MK41>Sonosax SX-R4 + Soundboard>SX-R4
Aqueous
by Aqueous
484
0
1
( 1 reviews )
Source: Schoeps Mk41>KC5>CMC6>Sonosax SX-R4(24bit/96khz) & Soundboard
Aqueous
by Aqueous
405
0
0
Source: Schoeps MK22/MK4>KC5>CMC6>Sonosax SX-R4(24bit/96khz) & SB>SX-R4
Aqueous
by Aqueous
74
0
0
Source: Schoeps MK22/MK4>Sonosax SX-R4
Aqueous
by Aqueous
75
0
0
Source: Schoeps mk22/mk4/sbd>Sonosax SX-R4
Aqueous
by Aqueous
36
0
0
Source: Schoeps MK22/MK4/sb>Sonosax SX-R4
Aqueous
by Aqueous
113
0
0
Source: Schoeps mk22/mk4/sbd>Sonosax SX-R4